designday
» » Buddy Emmons - Steel Guitar Jazz & Four Wheel Drive

Buddy Emmons - Steel Guitar Jazz & Four Wheel Drive FLAC album

Buddy Emmons misses a few notes in the intro. Everything else he does is incredible. British Steel Guitar Festival november 1988, Newbury Berkshire, England.

Listen free to Buddy Emmons – Amazing Steel Guitar: The Buddy Emmons Collection (Country Boy Bounce (As The Country Boys), Silver Bell and more). 13 tracks (). Discover more music, concerts, videos, and pictures with the largest catalogue online at Last.

Get the Tempo of the tracks from Steel Guitar Jazz (2003) by Buddy Emmons. This album has an average beat per minute of 103 BPM (slowest/fastest tempos: 74/132 BPM). See its BPM profile at the bottom of the page.

This album was recorded in Nashville. In 1990, Emmons and Ray Pennington formed the Swing Shift Band and began producing a series of CDs that included big band swing, Western swing, and original country songs. Emmons began touring with The Everly Brothers in 1991, which continued until about 2001. a b c d Liner notes to "Steel Guitar Jazz/Four Wheel Drive" (Steel Guitar Record Club written by Tom Bradshaw and Melvin Gregory. "Little jimmy dickens". Nashville, TN: Country Music Hall of Fame and Museum.

Steel Guitar Jazz was originally released by Mercury in 1963-and it’s a noteworthy record-but it’s Four Wheel Drive that influenced me substantially.

Buddy Emmons, Amazing Steel Guitar: The Buddy Emmons Collection Жанр: Country, Swing, Hard Bop, Mainstream, Steel Guitar Носитель: CD Страна-производитель диска: USA Год издания: 1997 Издатель (лейбл): Razor & Tie Номер по каталогу: RE 2135-2 Страна исполнителя (группы): USA Аудиокодек: FLAC . lac) Тип рипа: tracks+. FILE "04 - Four Wheel Drive. wav" WAVE INDEX 01 00:00:00 TRACK 05 AUDIO TITLE "Blue Wind" PERFORMER "Buddy Emmons" INDEX 00 01:53:65 FILE "05 - Blue Wind. wav" WAVE INDEX 01 00:00:00 TRACK 06 AUDIO TITLE "Bluemoons" PERFORMER "Buddy Emmons" INDEX 00 02:40:28 FILE "06 - Bluemoons. wav" WAVE INDEX 01 00:00:00 TRACK 07 AUDIO.

Title: Steel Guitar and Dobro Sounds. Artist: Buddy Emmons. The 6-page CD booklet includes the original album cover artwork and liner notes exactly as they appeared on the original LP release as well as new liner notes written by Buddy Emmons COUNTRY CHRISTMAS Buddy Emmons Floyd Cramer Ray Price Jack Greene Faron NEW CD.

Artist: Buddy Emmons Title Of Album: Amazing Steel Guitar: The Buddy Emmons Collection Year Of Release: 1997 Label: Razor & Tie Genre: Country, Swing, Hard Bop, Mainstream, Steel Guitar Qual. Artist: Buddy Emmons Title: Amazing Steel Guitar: The Buddy Emmons Collection Year Of Release: 1997 Label: Razor & Tie Genre: Jazz, Folk, World Quality: FLAC (tracks+.

By age 15, Buddy's playing had progressed considerably and his parents bought him a triple-neck Fender "Stringmaster" steel guitar, and he began performing with local bands in South Bend such as The Choctaw Cowboys. "Buddy Emmons", Buddy Emmons (Emmons Guitar Company) "Touch My Heart/Burning Memories", Ray Price (Audium/Sony) "Steel Guitar", Buddy Emmons (Flying Fish Records) "Swinging Our Way", Buddy Emmons & Ray Pennington (Step One Records) "Minors Aloud", Buddy Emmons & Lenny Breau (Flying Fish Records) "Buddy Emmons Sings Bob Wills", Buddy Emmons (Flying Fish Records).

Tracklist

Steel Guitar Jazz - Disc A
A1 Bluemmons
A2 Any Time
A3 Where Or When
A4 Back Home Again In Indiana
A5 Gravy Waltz
A6 Oleo
B1 The Preacher
B2 Cherokee
B3 Witchcraft
B4 Gonna Build A Mountain
B5 There Will Never Be Another You
Four Wheel Drive - Disc B
C1 Four Wheel Drive
C2 Red Wig
C3 Raisin' The Dickens
C4 Cajun Steel Guitar
C5 Silver Bells
C6 Border Serenade
C7 Cold Rolled Steel
D1 Flint Hill Special
D2 Blue Wind
D3 Buddie's Boogie
D4 Lily Dale
D5 Country Boy Bounce
D6 Rose City Chimes

Credits

  • Producer – Tom Bradshaw
  • Remastered By – Dan Jewell

Notes

Disc A: Originally released on Mercury Records SR-60843 & MG-20843
Disc B: "Composite album of many single recordings Buddy made" (details on back of sleeve)

Other versions

Category Artist Title (Format) Label Category Country Year
Club Record No.5 Buddy Emmons Steel Guitar Jazz & Four Wheel Drive ‎(2xLP, Album, Comp, RM) Steel Guitar Record Club Club Record No.5 US 1975
Buddy Emmons - Steel Guitar Jazz & Four Wheel Drive FLAC album
Performer:
Title:
Steel Guitar Jazz & Four Wheel Drive
FLAC size:
1801 mb
MP3 size:
1705 mb
WMA size:
1785 mb
Country:
Released:
Style:
Country
Rating:
4.6
Other formats:
AA AHX AUD AAC FLAC VQF APE
© 2018-2019 Copyrights
All rights reserved. www.designday.fr | Privacy Policy | DMCA | Contacts